<?xml version="1.0" standalone="no"?>
<!DOCTYPE svg PUBLIC "-//W3C//DTD SVG 1.1//EN" "http://www.w3.org/Graphics/SVG/1.1/DTD/svg11.dtd" >
<!--
2013-9-30: Created.
-->
<svg>
<metadata>
Created by iconfont
</metadata>
<defs>

<font id="iconfont" horiz-adv-x="1024" >
  <font-face
    font-family="iconfont"
    font-weight="500"
    font-stretch="normal"
    units-per-em="1024"
    ascent="896"
    descent="-128"
  />
    <missing-glyph />
    
    <glyph glyph-name="huihua" unicode="&#58900;" d="M512.5 831C266.39 831 65 656.038 65 437.5l0.02-3.822c1.3-119.663 63.593-229.584 166.551-302.587l2.117-1.487-15.536-123.648c-4.13-32.878 19.174-62.88 52.052-67.012l0.607-0.073a60 60 0 0 1 47.688 15.626l104.851 97.307 1.823-0.32c28.553-4.962 57.76-7.484 87.327-7.484C758.61 44 960 218.962 960 437.5S758.61 831 512.5 831z m0-72C720.92 759 888 613.846 888 437.5S720.92 116 512.5 116c-29.973 0-59.461 3.008-88.054 8.9l-3.193 0.67-19.687 4.246-107.863-100.101 17.062 135.786-22.047 13.903c-0.569 0.361-1.041 0.663-1.414 0.903C193.068 240.945 137 335.5 137 437.5 137 613.846 304.08 759 512.5 759zM300.795 506.083c-6.58-62.6 13.922-124.716 57.215-176.261 11.689-13.918 24.918-26.898 39.491-38.731l2.317-1.861 2.141-1.691-54.433-69.145-2.65 2.094c-0.406 0.323-0.766 0.61-1.08 0.863-19.573 15.706-37.393 33.088-53.171 51.874-57.651 68.64-85.932 153.267-77.611 239.444l87.781-6.586z"  horiz-adv-x="1024" />

    
    <glyph glyph-name="wenjianjia1" unicode="&#58926;" d="M123.1 508.9c204 91.4 418.6 151.3 610.1 280.2l133.9-280.2h-744zM733.7 812.9c-4.9 0.1-9.7-1.3-13.8-4.1-73.9-49.7-151.6-89.2-231.3-124.3-12-5.3-17.5-19.3-12.2-31.3 5.3-12 19.3-17.5 31.3-12.2C581 673.3 653.1 710.7 723 755.5l9.1-18.8c5.5-11.9 19.6-17.1 31.5-11.7 11.9 5.5 17.1 19.6 11.7 31.5-0.1 0.3-0.2 0.5-0.4 0.8l-20.3 42.2c-3.9 8-11.9 13.2-20.9 13.4zM202.2 582.9c211 34.6 395.1 32.3 639.4 112.8l46.8-265.1-686.2 152.3zM835.7-18.5c43.7 0 79.2 35.5 79.2 79.2V519.9c0 26.2-21.3 47.5-47.5 47.5H493.7c-14.1 0-27.5 6.3-36.5 17.1l-50.7 60.8c-9 10.8-22.4 17.1-36.5 17.1H154.7c-26.2 0-47.5-21.3-47.5-47.5v-554.3c0-43.7 35.5-79.2 79.2-79.2l649.3 0.1zM843.6 567.4v-475.1c0-21.9-17.7-39.6-39.6-39.6H107.6c4-40 37.7-71.3 78.8-71.3h649.3c43.7 0 79.2 35.5 79.2 79.2V519.9c0 26.2-21.3 47.5-47.5 47.5h-23.8zM154.7 686.2c-39.1 0-71.3-32.2-71.3-71.3v-554.3c0-56.6 46.4-102.9 102.9-102.9h649.3c56.6 0 102.9 46.4 102.9 102.9V519.9c0 39.1-32.2 71.3-71.3 71.3H493.7c-7.1 0-13.7 3.1-18.2 8.6l-50.7 60.8c-13.5 16.2-33.6 25.6-54.7 25.6H154.7z m0-47.5H370c7.1 0 13.7-3.1 18.2-8.6l50.7-60.8c13.5-16.2 33.6-25.6 54.7-25.6h373.7c13.4 0 23.8-10.4 23.8-23.8v-459.3c0-30.9-24.5-55.4-55.4-55.4H186.4c-30.9 0-55.4 24.5-55.4 55.4V614.9c0 13.4 10.3 23.8 23.7 23.8zM834.3 718.2c-81.2-26.7-155.5-44.2-226.7-56.9-31.5-5.4-23-52.7 8.4-46.8 65 11.6 133.7 28.3 206.9 51l4.5-25.5c5.5-31.2 52.3-22.9 46.8 8.3l-9.1 51.5c-2.5 14.1-16.7 22.9-30.8 18.4z"  horiz-adv-x="1024" />

    
    <glyph glyph-name="wenjianjia2" unicode="&#58886;" d="M1076.875776-102.4H49.803776A49.152 49.152 0 0 0 0.139776-54.016V747.264a49.408 49.408 0 0 0 49.664 49.152h1027.072A49.408 49.408 0 0 0 1126.539776 747.264v-801.28A49.408 49.408 0 0 0 1076.875776-102.4zM563.339776 559.36H0.139776V844.8a47.616 47.616 0 0 0 45.056 51.2H435.339776a51.2 51.2 0 0 0 47.616-39.424zM1081.483776-128H45.195776A47.616 47.616 0 0 0 0.139776-76.8V645.632a47.616 47.616 0 0 0 45.056 49.92h1036.288A47.616 47.616 0 0 0 1126.539776 645.632v-723.712A47.872 47.872 0 0 0 1081.483776-128z"  horiz-adv-x="1126" />

    
    <glyph glyph-name="xitong3" unicode="&#58913;" d="M913.493333 431.573333a53.76 53.76 0 0 1-37.76 39.466667l-13.013333 2.986667a131.413333 131.413333 0 0 0-89.6 156.373333l3.84 12.373333a54.186667 54.186667 0 0 1-15.146667 52.48A369.92 369.92 0 0 1 714.666667 725.333333a372.693333 372.693333 0 0 1-49.92 25.6 53.546667 53.546667 0 0 1-52.906667-13.013333l-9.173333-9.813333a130.773333 130.773333 0 0 0-180.053334 0l-8.746666 9.6a53.546667 53.546667 0 0 1-52.906667 13.013333A370.56 370.56 0 0 1 310.613333 725.333333a369.493333 369.493333 0 0 1-47.146666-30.506666 53.76 53.76 0 0 1-15.36-52.48l3.84-12.373334a131.2 131.2 0 0 0-89.813334-155.946666l-12.8-2.986667a53.76 53.76 0 0 1-37.546666-39.466667 368.426667 368.426667 0 0 1-2.773334-56.32A366.506667 366.506667 0 0 1 111.786667 320 53.973333 53.973333 0 0 1 149.333333 279.466667l12.373334-2.773334a131.413333 131.413333 0 0 0 90.24-156.8l-3.84-12.373333a53.76 53.76 0 0 1 15.36-52.48 362.666667 362.666667 0 0 1 47.146666-30.506667A362.666667 362.666667 0 0 1 360.746667 0a53.76 53.76 0 0 1 52.906666 12.8l8.746667 8.533333a130.986667 130.986667 0 0 0 180.48 0l8.746667-9.386666a53.76 53.76 0 0 1 52.906666-12.8 384 384 0 0 1 50.133334 25.6 366.293333 366.293333 0 0 1 47.146666 30.506666 53.973333 53.973333 0 0 1 15.36 52.48l-3.84 12.8A131.413333 131.413333 0 0 0 863.573333 277.333333l12.373334 2.773334A53.546667 53.546667 0 0 1 913.706667 320a368 368 0 0 1 3.626666 55.466667 371.413333 371.413333 0 0 1-3.84 56.106666zM512 253.866667a130.133333 130.133333 0 1 0 129.706667 130.133333A129.92 129.92 0 0 0 512 253.866667z"  horiz-adv-x="1024" />

    
    <glyph glyph-name="game" unicode="&#59009;" d="M822.71 94.17c-55.89-0.01-118.07 37.08-169.98 105.38-31.51 41.44-77.3 65.22-125.65 65.22h-30.16c-48.35 0-94.15-23.77-125.65-65.22-74.38-97.87-169.89-131.63-237.67-84.05-83.45 58.61-93.16 221.8-22.09 371.51 45.43 95.71 113.92 163.75 183.22 182.01 38.05 10.02 73.86 4.29 103.57-16.57 31.8-22.57 63.31-33.83 94.16-33.83h39.08c30.86 0 62.36 11.26 93.63 33.47 30.23 21.23 66.05 26.95 104.1 16.93 69.3-18.27 137.78-86.3 183.21-182.01v0.01c71.08-149.72 61.38-312.91-22.09-371.51-20.48-14.39-43.5-21.34-67.68-21.34z m-325.79 223.3h30.16c64.96 0 126.05-31.36 167.6-86.03 56.01-73.7 122.48-102.94 165.42-72.8 60.95 42.8 63.14 182.84 4.77 305.79v0.01c-38.27 80.63-95.38 139.5-149.04 153.65-22.85 6.04-43 3.1-59.85-8.74-40.67-28.87-82.43-43.41-124.44-43.41h-39.08c-42 0-83.78 14.54-124.15 43.2-17.14 12.04-37.28 14.96-60.15 8.94-53.66-14.14-110.77-73.01-149.05-153.65-58.36-122.96-56.17-262.99 4.77-305.79 42.96-30.16 109.42-0.89 165.43 72.8 41.56 54.67 102.65 86.03 167.61 86.03zM783.31 328.58c-36.32 0-65.87 29.55-65.87 65.87s29.55 65.87 65.87 65.87c36.32 0 65.87-29.55 65.87-65.87s-29.55-65.87-65.87-65.87z m0 79.04c-7.26 0-13.17-5.91-13.17-13.17s5.91-13.17 13.17-13.17c7.27 0 13.18 5.91 13.18 13.17s-5.91 13.17-13.18 13.17zM653.71 372.93c-36.32 0-65.87 29.55-65.87 65.87s29.55 65.87 65.87 65.87c36.32 0 65.87-29.55 65.87-65.87s-29.56-65.87-65.87-65.87z m0 79.04c-7.26 0-13.17-5.91-13.17-13.17s5.91-13.17 13.17-13.17 13.17 5.91 13.17 13.17-5.91 13.17-13.17 13.17zM319.41 333.41c-14.55 0-26.35 11.8-26.35 26.35V517.84c0 14.55 11.8 26.35 26.35 26.35s26.35-11.8 26.35-26.35v-158.08c0-14.56-11.8-26.35-26.35-26.35zM398.45 412.45H240.37c-14.55 0-26.35 11.8-26.35 26.35s11.8 26.35 26.35 26.35h158.08c14.55 0 26.35-11.8 26.35-26.35s-11.8-26.35-26.35-26.35z"  horiz-adv-x="1024" />

    
    <glyph glyph-name="xitong4" unicode="&#58942;" d="M1100.151995 761.40084V235.716973a331.255364 331.255364 0 0 0-1.390837-58.598846 155.537554 155.537554 0 0 0-28.367825-66.051632 142.416451 142.416451 0 0 0-82.400526-51.382239 242.766646 242.766646 0 0 0-53.744038-2.781674H167.950117a253.15856 253.15856 0 0 0-49.597769 1.941923 141.366763 141.366763 0 0 0-83.502699 48.075722 155.24889 155.24889 0 0 0-30.860834 65.238123 337.501009 337.501009 0 0 0-2.204345 64.94946v482.856587a301.076827 301.076827 0 0 0 3.56894 66.86514A140.868161 140.868161 0 0 0 94.366972 887.15349 227.336229 227.336229 0 0 0 172.909894 895.446027h634.247873c19.839108 0 144.647038-0.183695 164.486146-0.288664a158.083048 158.083048 0 0 0 54.84621-16.558832 147.113806 147.113806 0 0 0 65.605514-76.837179 158.791587 158.791587 0 0 0 6.613036-26.53087c0.524844-4.618628 0.970962-9.211014 1.443322-13.829642z m-78.542922-4.408691l-0.551087 5.799528-3.595182 13.829642a64.503342 64.503342 0 0 1-26.242206 31.228225 114.599713 114.599713 0 0 1-60.094651 8.843623H182.908175a233.240725 233.240725 0 0 1-55.948383-1.941923 62.981294 62.981294 0 0 1-43.798242-41.987529 175.219208 175.219208 0 0 1-2.755431-45.871376v-493.904556a227.756104 227.756104 0 0 1 1.364594-48.101963 73.478176 73.478176 0 0 1 15.745324-29.574966c16.165199-20.049045 42.906007-19.602928 79.094008-19.602928h754.358449a188.051647 188.051647 0 0 1 43.535819 1.915681 63.742318 63.742318 0 0 1 34.456016 22.935688c14.459455 19.734139 12.674985 41.174021 12.674986 74.895256V756.992149zM52.484412 344.359705h997.203821v-78.726618H52.484412v78.726618z m183.69544-393.633088h603.570734c14.485698 0 52.484412-11.756508 52.484412-26.242205v-26.242206c0-14.485698-37.998714-26.242206-52.484412-26.242206H236.179852c-14.485698 0-52.484412 11.756508-52.484411 26.242206v26.242206c0 14.485698 37.998714 26.242206 52.484411 26.242205z m262.422059 157.453235h78.726617v-183.69544h-78.726617v183.69544z"  horiz-adv-x="1101" />

    
    <glyph glyph-name="ren-fanqiang" unicode="&#59532;" d="M259.905614 596.327122c29.825234 0 63.911217 8.521496 89.475704 29.825235 63.911217 51.128973 76.69346 144.865424 25.564486 208.776641C328.077579 903.100962 234.341128 915.883206 166.169163 864.754232c-29.825234-25.564487-51.128973-59.650469-55.389721-97.997199-4.260748-42.607478 4.260748-80.954208 29.825235-110.779442C170.429911 617.630861 213.037389 596.327122 259.905614 596.327122zM979.971989 42.429911c25.564487 0 42.607478 17.042991 42.607478 42.607478s-17.042991 42.607478-42.607478 42.607478H553.897211v85.214955h426.074778c25.564487 0 42.607478 17.042991 42.607478 42.607478s-17.042991 42.607478-42.607478 42.607478h-76.69346c4.260748 4.260748 8.521496 8.521496 12.782243 17.042991 8.521496 21.303739-4.260748 46.868226-25.564486 55.389721L681.719644 442.940202c-12.782243 4.260748-29.825234 8.521496-46.868225 4.260748l-4.260748 12.782243c-8.521496 21.303739-21.303739 38.34673-38.34673 55.389721-89.475703 76.69346-178.951407 102.257947-268.42711 76.69346-200.255146-63.911217-255.644867-247.123371-255.644867-255.644866-4.260748-12.782243 0-25.564487 8.521496-34.085982H42.607478c-25.564487 0-42.607478-17.042991-42.607478-42.607478s17.042991-42.607478 42.607478-42.607478h315.295335v-85.214956H42.607478c-25.564487 0-42.607478-17.042991-42.607478-42.607477s17.042991-42.607478 42.607478-42.607478h191.73365v-85.214956H42.607478c-25.564487 0-42.607478-17.042991-42.607478-42.607477s17.042991-42.607478 42.607478-42.607478h937.364511c25.564487 0 42.607478 17.042991 42.607478 42.607478s-17.042991 42.607478-42.607478 42.607477h-191.73365v85.214956H979.971989z m-536.85422 293.991597l136.343929 21.303739 8.521495-29.825235c4.260748-12.782243 17.042991-25.564487 29.825235-25.564486h-174.690659v34.085982z m391.988795-38.34673H639.112167h4.260747c21.303739 8.521496 34.085982 34.085982 25.564487 55.389721v4.260748l166.169163-59.650469z m-298.252344 153.38692c4.260748-4.260748 8.521496-8.521496 12.782243-17.042991l-123.561685-17.042991-34.085982 97.997198c46.868226 0 93.736451-21.303739 144.865424-63.911216zM140.604677 298.074778c4.260748 4.260748 4.260748 8.521496 4.260747 12.782243 0 0 38.34673 127.822433 166.169164 183.212155l46.868225-132.083182V298.074778H140.604677z m302.513092-85.214956h25.564487v-85.214955h-25.564487v85.214955z m-123.561686-170.429911h38.34673v-51.128973c0-12.782243 4.260748-25.564487 17.042991-34.085982H319.556083v85.214955z m383.4673-85.214955H426.074778c8.521496 8.521496 17.042991 17.042991 17.042991 34.085982V42.429911h259.905614v-85.214955z"  horiz-adv-x="1024" />

    
    <glyph glyph-name="qita" unicode="&#58880;" d="M150.528 464.896q37.888 0 58.368-24.064t20.48-51.712l0-11.264q0-34.816-17.92-58.88t-59.904-24.064l-7.168 0q-38.912 0-61.952 21.504t-23.04 59.392l0 14.336q0 13.312 5.632 26.624t15.872 24.064 25.6 17.408 33.792 6.656l10.24 0zM519.168 464.896q37.888 0 58.368-24.064t20.48-51.712l0-11.264q0-34.816-17.92-58.88t-59.904-24.064l-7.168 0q-38.912 0-61.952 21.504t-23.04 59.392l0 14.336q0 13.312 5.632 26.624t15.872 24.064 25.6 17.408 33.792 6.656l10.24 0zM887.808 464.896q37.888 0 58.368-24.064t20.48-51.712l0-11.264q0-34.816-17.92-58.88t-59.904-24.064l-7.168 0q-38.912 0-61.952 21.504t-23.04 59.392l0 14.336q0 13.312 5.632 26.624t15.872 24.064 25.6 17.408 33.792 6.656l10.24 0z"  horiz-adv-x="1024" />

    
    <glyph glyph-name="kaifa" unicode="&#58904;" d="M964.431811 34.049746c0-53.44012-43.324738-96.762811-96.763834-96.762811L153.816736-62.713065c-53.44012 0-96.763834 43.322691-96.763834 96.762811L57.052902 733.94923c0 53.439096 43.323715 96.763834 96.763834 96.763834l713.851241 0c53.439096 0 96.763834-43.323715 96.763834-96.763834L964.431811 34.049746zM908.593062 733.94923c0 22.602787-18.322297 40.925085-40.925085 40.925085L153.816736 774.874315c-22.602787 0-40.925085-18.322297-40.925085-40.925085l0-699.899484c0-22.602787 18.322297-40.924061 40.925085-40.924061l713.851241 0c22.602787 0 40.925085 18.321274 40.925085 40.924061L908.593062 733.94923zM931.195849 621.31801 79.655689 621.31801c-7.716752 0-13.959943 6.244214-13.959943 13.959943 0 7.716752 6.244214 13.959943 13.959943 13.959943l851.54016 0c7.701402 0 13.95892-6.243191 13.95892-13.959943C945.154769 627.562225 938.898275 621.31801 931.195849 621.31801zM177.373245 691.11568l-13.959943 0c-7.715729 0-13.959943 6.244214-13.959943 13.959943 0 7.715729 6.244214 13.959943 13.959943 13.959943l13.959943 0c7.702426 0 13.959943-6.244214 13.959943-13.959943C191.333188 697.359894 185.075671 691.11568 177.373245 691.11568zM275.0908 691.11568l-13.959943 0c-7.715729 0-13.959943 6.244214-13.959943 13.959943 0 7.715729 6.244214 13.959943 13.959943 13.959943l13.959943 0c7.702426 0 13.959943-6.244214 13.959943-13.959943C289.050744 697.359894 282.793226 691.11568 275.0908 691.11568zM372.808356 691.11568l-13.959943 0c-7.716752 0-13.959943 6.244214-13.959943 13.959943 0 7.715729 6.243191 13.959943 13.959943 13.959943l13.959943 0c7.702426 0 13.959943-6.244214 13.959943-13.959943C386.768299 697.359894 380.510782 691.11568 372.808356 691.11568zM361.180528 126.015298c-4.062526 0-8.097422 1.77032-10.851139 5.152347L222.360855 289.087327c-4.14439 5.126764-4.14439 12.459776 0 17.58654l78.836533 97.302093c4.853541 5.970992 13.645788 6.884804 19.631106 2.057869 5.998621-4.852518 6.91141-13.639648 2.058892-19.637246l-71.707159-88.502683 120.838136-149.138692c4.853541-5.997598 3.925403-14.777565-2.058892-19.631106C367.369483 127.023254 364.260679 126.015298 361.180528 126.015298zM348.406596 426.114167c-3.081175 0-6.188956 1.022283-8.779967 3.122107-5.984295 4.853541-6.91141 13.645788-2.058892 19.631106l12.760628 15.732309c4.866844 5.985318 13.645788 6.898107 19.631106 2.045589 5.984295-4.853541 6.91141-13.645788 2.058892-19.631106l-12.760628-15.732309C356.504018 427.886533 352.469122 426.114167 348.406596 426.114167zM663.630954 126.015298c-3.094478 0-6.203282 1.006933-8.778944 3.107781-5.997598 4.852518-6.91141 13.632485-2.058892 19.631106l120.838136 149.138692L652.793118 447.013149c-4.852518 5.997598-3.939729 14.790868 2.058892 19.644409 5.957689 4.839215 14.764262 3.926426 19.631106-2.058892l127.95523-157.925822c4.15667-5.126764 4.15667-12.459776 0-17.58654L674.482093 131.168668C671.71405 127.786641 667.692457 126.015298 663.630954 126.015298zM454.2359 200.175321c-3.081175 0-6.188956 1.00898-8.778944 3.107781-5.985318 4.854565-6.91141 13.632485-2.058892 19.631106L571.366597 380.833891c4.852518 5.970992 13.646811 6.898107 19.631106 2.071172 5.984295-4.852518 6.91141-13.659091 2.058892-19.657712L465.087039 205.329714C462.333322 201.948711 458.298426 200.175321 454.2359 200.175321z"  horiz-adv-x="1024" />

    
    <glyph glyph-name="dakaihuihua" unicode="&#58954;" d="M147.47085 88.488197C81.582608 171.068047 42.198415 275.726718 42.198415 389.584055 42.198415 656.416686 258.509001 872.727273 525.341631 872.727273 792.174263 872.727273 1008.484848 656.416686 1008.484848 389.584055 1008.484848 122.751426 792.174263-93.559163 525.341631-93.559163 459.164067-93.559163 396.094101-80.253961 338.660852-56.172681L15.515152-120.242424 147.47085 88.488197ZM248.242424 438.30303 791.272727 438.30303C825.547854 438.30303 853.333333 466.08851 853.333333 500.363636 853.333333 534.638763 825.547854 562.424242 791.272727 562.424242L248.242424 562.424242C213.967298 562.424242 186.181818 534.638763 186.181818 500.363636 186.181818 466.08851 213.967298 438.30303 248.242424 438.30303ZM356.848485 190.060606 713.69697 190.060606C747.972096 190.060606 775.757576 217.846086 775.757576 252.121212 775.757576 286.396338 747.972096 314.181818 713.69697 314.181818L356.848485 314.181818C322.573359 314.181818 294.787879 286.396338 294.787879 252.121212 294.787879 217.846086 322.573359 190.060606 356.848485 190.060606Z"  horiz-adv-x="1024" />

    
    <glyph glyph-name="huihua-copy" unicode="&#58951;" d="M0 831.842c0 35.434 28.456 64.158 64.056 64.158h895.888c35.377 0 64.056-29.169 64.056-64.158v-639.683c0-35.434-28.456-64.158-64.056-64.158h-895.888c-35.377 0-64.056 29.169-64.056 64.158v639.683zM256 128h256l-256-256v256zM256 448c35.346 0 64 28.654 64 64s-28.654 64-64 64c-35.346 0-64-28.654-64-64 0-35.346 28.654-64 64-64zM512 448c35.346 0 64 28.654 64 64s-28.654 64-64 64c-35.346 0-64-28.654-64-64 0-35.346 28.654-64 64-64zM768 448c35.346 0 64 28.654 64 64s-28.654 64-64 64c-35.346 0-64-28.654-64-64 0-35.346 28.654-64 64-64z"  horiz-adv-x="1025" />

    
    <glyph glyph-name="iconfontyouxihudong" unicode="&#58934;" d="M1018.88 276.48C985.6 565.76 926.72 773.12 739.84 773.12c-94.72 0-143.36-97.28-227.84-104.96-87.04 7.68-133.12 104.96-227.84 104.96-186.88 0-245.76-207.36-276.48-494.08-17.92-153.6-2.56-281.6 92.16-281.6 133.12 0 138.24 120.32 232.96 176.64 35.84 17.92 115.2 25.6 181.76 28.16 66.56-2.56 145.92-10.24 181.76-28.16 94.72-56.32 99.84-176.64 232.96-176.64C1021.44-5.12 1034.24 122.88 1018.88 276.48L1018.88 276.48zM286.72 302.08C212.48 302.08 153.6 363.52 153.6 435.2s58.88 133.12 133.12 133.12 133.12-58.88 133.12-133.12S358.4 302.08 286.72 302.08L286.72 302.08zM883.2 409.6l-104.96 0 0-104.96-51.2 0L727.04 409.6l-104.96 0 0 51.2 104.96 0L727.04 563.2l51.2 0L778.24 460.8l104.96 0L883.2 409.6 883.2 409.6 883.2 409.6zM883.2 409.6M209.92 435.2c0-20.48 7.68-38.4 23.04-53.76 12.8-12.8 33.28-23.04 53.76-23.04 20.48 0 38.4 7.68 53.76 23.04 12.8 12.8 23.04 33.28 23.04 53.76 0 20.48-7.68 38.4-23.04 53.76-12.8 12.8-33.28 23.04-53.76 23.04-20.48 0-38.4-7.68-53.76-23.04C217.6 476.16 209.92 455.68 209.92 435.2L209.92 435.2zM209.92 435.2"  horiz-adv-x="1025" />

    
    <glyph glyph-name="xitong" unicode="&#58881;" d="M423.844408 611.886206c-39.870006 0-72.156392-31.870406-72.156392-71.05778 0-39.25137 32.275719-71.05778 72.156392-71.05778 39.838008 0 72.124394 31.80641 72.124394 71.05778C495.968802 580.015799 463.693082 611.886206 423.844408 611.886206zM676.237121 271.348566l20.372314 20.062997c22.558872 22.185558 22.558872 58.183758 0 80.369315l-35.25157 34.686266c11.370098 19.433695 20.244321 40.307318 26.494675 62.439545l38.056764 0c31.870406 0 57.746446 25.438728 57.746446 56.807827l0 28.435911c0 31.369099-25.876039 56.871823-57.746446 56.871823l-37.619452 0c-5.941036 21.812242-14.495275 42.621869-25.556055 61.938236l33.875639 33.310334c22.558872 22.249555 22.558872 58.247755 0 80.369315l-20.372314 20.126994c-22.558872 22.185558-59.122377 22.185558-81.617252 0l-33.246338-32.681033c-20.276319 11.626086-42.216556 20.681633-65.40473 26.931986l0 38.184758C495.968802 870.561272 470.124761 896 438.254354 896l-28.841225 0c-31.870406 0-57.714447-25.438728-57.714447-56.807827l0-38.184758c-23.188174-6.250354-45.117744-15.316567-65.436728-26.931986l-33.182341 32.681033c-22.526874 22.185558-59.090378 22.185558-81.617252 0l-20.404313-20.126994c-22.526874-22.121561-22.526874-58.119761 0-80.369315l33.875639-33.310334c-11.028782-19.316367-19.593687-40.125994-25.534723-61.938236l-37.65145 0C89.834441 611.011582 64.022399 585.519524 64.022399 554.13976l0-28.435911c0-31.369099 25.812042-56.807827 57.714447-56.807827l38.088763 0c6.186358-22.121561 15.092578-42.995183 26.441345-62.439545l-35.219572-34.686266c-22.526874-22.185558-22.526874-58.183758 0-80.369315l20.404313-20.062997c22.526874-22.185558 59.090378-22.185558 81.617252 0l35.432895 34.878256c19.689683-10.996783 40.872623-19.625686 63.186174-25.556055l0-36.435511c0-31.369099 25.844041-56.807827 57.714447-56.807827l28.841225 0c31.870406 0 57.714447 25.438728 57.714447 56.807827l0 36.435511c22.34555 5.941036 43.496492 14.559272 63.154175 25.556055l35.496892-34.878256C617.114744 249.152342 653.678249 249.152342 676.237121 271.348566zM423.844408 382.777661c-87.654284 0-158.744063 70.001833-158.744063 156.237521 0 86.374348 71.089779 156.301518 158.744063 156.301518s158.712064-69.937836 158.712064-156.301518C582.556472 452.768829 511.498692 382.777661 423.844408 382.777661zM931.979001 77.480926l-18.249755 0c-2.879856 10.623469-6.996983 20.681633-12.372714 30.057164l16.372514 16.19119c10.996783 10.751462 10.996783 28.19059 0 38.995383l-9.876839 9.748846c-10.932786 10.751462-28.627902 10.751462-39.624686 0l-16.063197-15.871206c-9.812842 5.621052-20.500308 10.058164-31.689083 13.066014l0 18.495075c0 15.25257-12.564705 27.561289-27.9986 27.561289l-14.004633 0c-15.497892 0-27.9986-12.308718-27.9986-27.561289l0-18.495075c-11.25277-2.997183-21.876239-7.434295-31.753079-13.066014l-16.127194 15.871206c-10.879456 10.751462-28.627902 10.751462-39.560689 0l-9.940836-9.748846c-10.879456-10.815459-10.879456-28.243921 0-38.995383l16.436511-16.19119c-5.311734-9.375531-9.439528-19.433695-12.372714-30.057164L638.926987 77.480926c-15.433895 0-27.9986-12.308718-27.9986-27.561289l0-13.748646c0-15.25257 12.564705-27.561289 27.9986-27.561289l18.495075 0c2.997183-10.751462 7.316967-20.873623 12.810026-30.313151l-17.119144-16.809827c-10.879456-10.751462-10.879456-28.19059 0-38.995383l9.940836-9.684849c10.932786-10.815459 28.681233-10.815459 39.560689 0l17.247138 16.873823c9.503525-5.311734 19.753679-9.503525 30.622469-12.372714l0-17.684449c0-15.188574 12.500708-27.561289 27.9986-27.561289l14.004633 0c15.433895 0 27.9986 12.372714 27.9986 27.561289l0 17.684449c10.751462 2.879856 21.065614 7.06098 30.622469 12.372714l17.119144-16.873823c10.996783-10.815459 28.681233-10.815459 39.624686 0l9.876839 9.684849c10.996783 10.815459 10.996783 28.243921 0 38.995383l-17.065814 16.809827c5.503725 9.439528 9.812842 19.561689 12.810026 30.313151l18.495075 0c15.497892 0 27.9986 12.308718 27.9986 27.561289l0 13.748646C959.977601 65.161542 947.476893 77.480926 931.979001 77.480926zM785.490325-33.20154c-42.557872 0-76.998817 33.939636-76.998817 75.80421s34.440945 75.80421 76.998817 75.80421c42.493875 0 76.998817-33.939636 76.998817-75.80421S827.984201-33.20154 785.490325-33.20154zM785.490325 77.918237c-19.369699 0-34.995583-15.433895-34.995583-34.440945 0-19.06038 15.625886-34.440945 34.995583-34.440945 19.316367 0 34.995583 15.369899 34.995583 34.440945C820.485909 62.484343 804.796027 77.918237 785.490325 77.918237z"  horiz-adv-x="1024" />

    
    <glyph glyph-name="xitong1" unicode="&#59004;" d="M508.472352 512.14786c67.34534 0 122.149982-54.804642 122.149982-122.149982s-54.804642-122.149982-122.149982-122.149982-122.149982 54.804642-122.149982 122.149982S441.127012 512.14786 508.472352 512.14786M508.472352 566.436652c-97.44853 0-176.438974-78.990444-176.438974-176.438974s78.990245-176.438974 176.438974-176.438974 176.438974 78.990444 176.438974 176.438974S605.920882 566.436652 508.472352 566.436652M944.657818 282.277112c7.75814 33.08237 11.71086 67.147074 11.71086 101.721833 0 34.574758-3.95272 68.639462-11.71086 101.721833-3.424478 14.6025-18.03817 23.663956-32.64047 20.239478-14.6025-3.424478-23.663956-18.03817-20.239478-32.64047 6.806385-29.023522 10.276233-58.927247 10.276233-89.32084s-3.469847-60.297318-10.276233-89.32084c-3.424478-14.6025 5.636978-29.215992 20.239478-32.64047C926.619648 258.613156 941.23334 267.674613 944.657818 282.277112L944.657818 282.277112zM912.571772 261.428847c1.717835 0 3.155461-0.025982 4.466372-0.082944 14.984441-0.651558 27.660046 10.967564 28.311405 25.952005 0.651558 14.984441-10.967564 27.659847-25.952005 28.311205-2.173127 0.094536-4.374234 0.134309-6.825572 0.134309-14.998631 0-27.157187-12.158756-27.157187-27.157387C885.414585 273.587604 897.573141 261.428847 912.571772 261.428847L912.571772 261.428847zM823.90289 98.055414c-11.086883 17.029254-17.073024 36.869003-17.073024 57.631526 0 58.400005 47.341902 105.741907 105.741907 105.741907 14.998431 0 27.157187 12.158756 27.157187 27.157387 0 14.998431-12.158756 27.157387-27.157187 27.157387-88.397267 0-160.056482-71.659415-160.056482-160.056482 0-31.370131 9.087639-61.488711 25.869461-87.265634 8.183252-12.569478 25.006645-16.125267 37.576123-7.941815C828.530352 68.662743 832.086142 85.486136 823.90289 98.055414L823.90289 98.055414zM640.117097-41.604096c67.575784 20.29564 129.145839 56.493897 179.853459 105.270227 10.809471 10.39775 11.143045 27.589694 0.745295 38.398966s-27.589694 11.143045-38.398966 0.745295c-44.525412-42.829562-98.556179-74.595224-157.823396-92.395556-14.364661-4.314275-22.512137-19.456608-18.197862-33.821269C610.609902-37.770895 625.752236-45.918371 640.117097-41.604096L640.117097-41.604096zM416.297246-27.156492c17.308065 36.78526 54.331963 60.762003 95.703913 60.762003 41.379345 0 78.426227-23.983939 95.731094-60.762003 6.385471-13.571399 22.563902-19.396649 36.1351-13.011178 13.571399 6.385671 19.396649 22.563902 13.011178 36.1351-26.182448 55.646072-82.263425 91.952656-144.877373 91.952656-62.609751 0-118.665745-36.302187-144.850192-91.952656-6.385471-13.571199-0.56042-29.74963 13.010979-36.1351C393.733345-46.553141 409.911576-40.72789 416.297246-27.156492L416.297246-27.156492zM205.250336 62.505118c50.488769-48.177935 111.614725-83.95228 178.654872-104.107015 14.363462-4.318272 29.507994 3.825007 33.826266 18.188468 4.318272 14.363462-3.825007 29.507994-18.188468 33.826266-58.809527 17.680413-112.457954 49.078525-156.796092 91.387239-10.851043 10.35438-28.041388 9.951653-38.395768-0.89939S194.399293 72.859497 205.250336 62.505118L205.250336 62.505118zM113.276295 261.428847c58.400005 0 105.741907-47.341902 105.741907-105.741907 0-21.122679-6.193001-41.291404-17.633844-58.497139-8.304769-12.489532-4.912469-29.346503 7.576863-37.651472 12.489532-8.304769 29.346503-4.912669 37.651472 7.576863 17.319657 26.04674 26.720084 56.661384 26.720084 88.571548 0 88.397067-71.659415 160.056482-160.056482 160.056482-14.998631 0-27.157387-12.158756-27.157387-27.157387C86.119107 273.587604 98.277864 261.428847 113.276295 261.428847L113.276295 261.428847zM107.301546 261.279748c1.830759 0.100532 3.809417 0.149099 5.974749 0.149099 14.998631 0 27.157387 12.158756 27.157387 27.157387 0 14.998431-12.158756 27.157387-27.157387 27.157387-3.11269 0-6.073482-0.072551-8.954729-0.231043-14.976046-0.822842-26.449267-13.630359-25.626425-28.606405C79.518183 271.930327 92.325499 260.456906 107.301546 261.279748L107.301546 261.279748zM79.370483 485.796926c-7.770332-33.163315-11.736842-67.251004-11.736842-101.797981 0-34.546977 3.966311-68.634866 11.736842-101.797981 3.42168-14.603099 18.033373-23.667354 32.636472-20.245873 14.603099 3.42168 23.667354 18.033573 20.245873 32.636472-6.821775 29.11526-10.304613 59.045967-10.304613 89.407382 0 30.361415 3.482639 60.292322 10.304613 89.407382 3.42168 14.603099-5.642774 29.214992-20.245873 32.636472C97.403856 509.464479 82.791963 500.400025 79.370483 485.796926L79.370483 485.796926zM113.276295 506.569042c-2.165532 0-4.14419 0.048567-5.974749 0.149099-14.976046 0.822842-27.783363-10.650579-28.606405-25.626425-0.822842-14.976046 10.650579-27.783363 25.626425-28.606405 2.881047-0.158293 5.842039-0.230843 8.954729-0.230843 14.998631 0 27.157387 12.158756 27.157387 27.157387C140.433682 494.410286 128.274926 506.569042 113.276295 506.569042L113.276295 506.569042zM201.384357 670.807888c11.442442-17.207933 17.633844-37.377258 17.633844-58.524121 0-58.393209-47.335107-105.714725-105.741907-105.714725-14.998631 0-27.157387-12.158756-27.157387-27.157387 0-14.998631 12.158756-27.157387 27.157387-27.157387 88.400664 0 160.056482 71.635631 160.056482 160.0293 0 31.932949-9.398228 62.548592-26.720084 88.59873-8.304769 12.489532-25.16194 15.881832-37.651472 7.576863S193.079588 683.29742 201.384357 670.807888L201.384357 670.807888zM383.905208 809.599787c-67.040147-20.154935-128.166103-55.92908-178.654872-104.107015-10.851043-10.35438-11.25357-27.544725-0.89919-38.395768 10.35438-10.851043 27.544725-11.25357 38.395768-0.89919 44.338139 42.308915 97.986565 73.706827 156.796092 91.387239 14.363462 4.318272 22.50674 19.462804 18.188468 33.826266C413.413202 805.774581 398.26867 813.91786 383.905208 809.599787L383.905208 809.599787zM607.732254 795.154381c-17.303468-36.775266-54.348552-60.762203-95.703913-60.762203-41.396133 0-78.42183 23.974146-95.731094 60.762203-6.385471 13.571399-22.563902 19.396649-36.1351 13.010979-13.571399-6.385471-19.396649-22.563902-13.010979-36.1351 26.186446-55.654466 82.245038-91.952656 144.877373-91.952656 62.591363 0 118.669742 36.310581 144.850192 91.952656 6.385471 13.571399 0.56022 29.74963-13.011178 36.1351C630.296155 814.55103 614.117724 808.72578 607.732254 795.154381L607.732254 795.154381zM819.96476 704.337155c-50.705222 48.744751-112.269881 84.939811-179.83767 105.261633-14.363062 4.319871-29.508393-3.821809-33.828264-18.184671s3.821809-29.508393 18.184871-33.828264c59.273013-17.826913 113.309576-49.596174 157.839185-92.40415 10.812469-10.394552 28.004213-10.055582 38.398766 0.756887S830.777229 693.942603 819.96476 704.337155L819.96476 704.337155zM912.571772 506.569042c-58.407 0-105.741907 47.321516-105.741907 105.714725 0 20.786707 5.984742 40.627055 17.073024 57.658508 8.183252 12.569478 4.627463 29.392872-7.942015 37.576123-12.569478 8.183252-29.392872 4.627463-37.576123-7.942015-16.78422-25.780321-25.869461-55.8999-25.869461-87.292815 0-88.393669 71.655817-160.0293 160.056482-160.0293 14.998431 0 27.157187 12.158756 27.157187 27.157387C939.72896 494.410286 927.570203 506.569042 912.571772 506.569042L912.571772 506.569042zM917.038144 506.651786c-1.310911-0.056961-2.748337-0.082944-4.466372-0.082944-14.998631 0-27.157187-12.158756-27.157187-27.157387 0-14.998631 12.158556-27.157387 27.157187-27.157387 2.451538 0 4.652646 0.039773 6.825572 0.134109 14.984441 0.651558 26.603563 13.326964 25.952005 28.311405C944.697991 495.684222 932.022585 507.303344 917.038144 506.651786L917.038144 506.651786z"  horiz-adv-x="1024" />

    
    <glyph glyph-name="xiazai" unicode="&#58903;" d="M938.855808 257.223618l0-270.299169c0-27.41028-22.210861-49.634444-49.621141-49.634444l-754.442728 0c-27.41028 0-49.647747 22.224164-49.647747 49.634444L85.144192 257.223618c0 27.41028 22.224164 49.634444 49.634444 49.634444s49.634444-22.224164 49.634444-49.634444l0-220.664725 655.17384 0L839.58692 257.223618c0 27.41028 22.224164 49.634444 49.634444 49.634444S938.855808 284.633898 938.855808 257.223618zM476.55165 194.972832c9.335622-9.534144 22.116717-14.905478 35.46063-14.905478 13.344936 0 26.121937 5.371334 35.461653 14.905478l198.014866 202.167442c19.179828 19.583011 18.85544 51.006697-0.732687 70.190619-19.587104 19.175735-51.016931 18.85544-70.196759-0.731664l-112.924909-115.285676L561.634444 781.075551c0 27.41028-22.224164 49.634444-49.634444 49.634444-27.41028 0-49.634444-22.224164-49.634444-49.634444l0-429.754834L349.473393 466.59923c-19.179828 19.583011-50.590212 19.902282-70.186526 0.731664-19.583011-19.179828-19.910469-50.603515-0.730641-70.190619L476.55165 194.972832z"  horiz-adv-x="1024" />

    
    <glyph glyph-name="icon-test" unicode="&#58894;" d="M904 20.1H120c-30.9 0-56 25.1-56 56V691.9c0 30.9 25.1 56 56 56h231.6c12.8 0 25.2-4.4 35.2-12.4L509.9 636H904c30.9 0 56-25.1 56-56v-503.8c0-31-25.1-56.1-56-56.1z m0 56v-28 28zM351.6 691.9H120v-615.8h784l0.1 503.8H510c-12.8 0-25.3 4.4-35.3 12.5l-123.1 99.5z"  horiz-adv-x="1024" />

    
    <glyph glyph-name="xinxi" unicode="&#58944;" d="M805.677 218h100.323v540.3c0 0.072-0.972-0.3-1.696-0.3h-779.304v-561h401.869l3.867-1.982s230.651-131.583 285.375-162.778l-18.832 185.76h8.398zM246.395 562.149c0 45.515 37.029 82.543 82.543 82.543s82.543-37.029 82.543-82.543-37.029-82.543-82.543-82.543-82.543 37.028-82.543 82.543zM607.846 333.696c-25.872-10.699-59.908-16.494-95.837-16.494s-69.965 5.746-95.837 16.445c-41.257 17.061-47.416 40.353-47.416 52.353h33.591c0-5 8.343-13.687 26.661-21.263 21.579-8.924 51.832-13.945 83.001-13.945s61.421 4.971 83.001 13.896c18.317 7.576 26.661 16.312 26.661 21.312h33.591c-0.001-12-6.16-35.243-47.416-52.304zM695.078 479.606c-45.515 0-82.543 37.029-82.543 82.543s37.029 82.543 82.543 82.543c45.515 0 82.543-37.029 82.543-82.543s-37.028-82.543-82.543-82.543zM904.304 792h-784.765c-30.073 0-54.539-24.863-54.539-55.425v-517.298c0-30.561 24.466-55.277 54.539-55.277h398.429c34.254-20 284.848-162.442 292.86-167.011 5.582-3.184 10.775-4.768 15.874-4.767 7.977 0.001 14.871 3.852 19.076 10.598 2.903 4.656 4.221 10.346 4.221 17.432v143.748h54.304c30.356 0 54.697 24.716 54.697 55.277v517.298c0 30.562-24.341 55.425-54.696 55.425zM927 217.598c0-20.155-20.551-20.598-20.551-20.598h-89.449v-169.19l-0.685 4.759c-54.724 31.195-285.477 162.449-285.477 162.449l-3.969 1.982h-408.963c-11.132 0-19.906 9.466-19.906 20.598v521.497c0 11.131 8.774 19.905 19.905 19.905h7.095v-1h779.304c0.724 0 1.696 0.371 1.696 0.3v0.949c11 0 21-9.023 21-20.154v-521.497zM377.891 562.149c0 26.993-21.96 48.953-48.953 48.953-26.993 0-48.953-21.96-48.953-48.953 0-26.992 21.96-48.953 48.953-48.953 26.993 0 48.953 21.961 48.953 48.953zM411.482 562.149c0 45.515-37.029 82.543-82.543 82.543s-82.543-37.029-82.543-82.543 37.029-82.543 82.543-82.543 82.543 37.028 82.543 82.543zM279.986 562.149c0 26.993 21.96 48.953 48.953 48.953 26.992 0 48.953-21.96 48.953-48.953 0-26.992-21.96-48.953-48.953-48.953-26.993 0-48.953 21.961-48.953 48.953zM744.031 562.149c0 26.993-21.96 48.953-48.953 48.953s-48.953-21.96-48.953-48.953c0-26.992 21.96-48.953 48.953-48.953s48.953 21.961 48.953 48.953zM695.078 644.693c-45.515 0-82.543-37.029-82.543-82.543s37.029-82.543 82.543-82.543c45.515 0 82.543 37.029 82.543 82.543s-37.028 82.543-82.543 82.543zM646.126 562.149c0 26.993 21.96 48.953 48.953 48.953s48.953-21.96 48.953-48.953c0-26.992-21.96-48.953-48.953-48.953s-48.953 21.961-48.953 48.953zM595.009 364.737c-21.579-8.924-51.832-13.945-83.001-13.945s-61.421 4.971-83.001 13.896c-18.318 7.576-26.661 16.312-26.661 21.312h-33.591c0-12 6.16-35.243 47.415-52.304 25.873-10.699 59.908-16.494 95.837-16.494s69.965 5.746 95.837 16.445c41.258 17.061 47.417 40.353 47.417 52.353h-33.591c0.001-5-8.343-13.687-26.661-21.263zM125 759h-7.095c-11.131 0-19.905-8.774-19.905-19.905v-521.497c0-11.132 8.774-20.598 19.905-20.598h7.095v562zM906 759.249v-541.249h-108.721l19.036-185.65 0.685-4.54v169.19h89.449s20.551 0.443 20.551 20.598v521.497c0 11.131-10 20.154-21 20.154z"  horiz-adv-x="1024" />

    
    <glyph glyph-name="xiazai1" unicode="&#58996;" d="M1024 250.752v-330.752a48 48 0 0 0-48-48H48a48 48 0 0 0-48 48v330.752a48 48 0 0 0 96 0V-32h832v282.752a48 48 0 0 0 96 0z m-545.152-145.984a47.936 47.936 0 0 1 67.904 0l299.904 299.84a48 48 0 1 1-67.968 67.904l-217.792-217.856V848a48.064 48.064 0 0 1-96.064 0v-593.472L246.912 472.448a48 48 0 1 1-67.904-67.904l299.84-299.776z"  horiz-adv-x="1024" />

    
    <glyph glyph-name="youxi" unicode="&#59008;" d="M327.52829653333333 524.7810368c-43.690666666666665 0-77.67229653333334-33.981629866666665-77.67229653333334-77.67229653333334s33.981629866666665-77.67229653333334 77.67229653333334-77.67229546666667 77.67229653333334 33.981629866666665 77.67229653333334 77.67229546666667-36.40888853333333 77.67229653333334-77.67229653333334 77.67229653333334zM698.8989631999999 682.5528885333333c-143.20829653333334-70.3905184-237.87140693333333-63.10874026666668-385.93422293333333 0-259.71674026666665 0-407.7795552-686.9143701333333-213.59881386666666-686.9143701333333 165.05362986666665 0 186.8989632 201.46251840000002 410.20681386666666 201.46251840000002 182.04444479999998 0 288.84385173333334-199.0352597333333 410.20681493333336-199.03525866666664 189.32622186666669 0-7.281778133333333 684.4871114666666-220.880592 684.4871104z m-371.3706666666667-364.0888885333333c-70.3905184 0-126.2174816 55.8269632-126.2174816 126.2174816s55.8269632 126.2174816 126.2174816 126.2174816 126.2174816-55.8269632 126.2174816-126.2174816-58.254221866666654-126.2174816-126.2174816-126.2174816z m288.84385173333334 118.93570346666667c-19.4180736 4.8545184-29.127111466666666 24.272593066666666-21.845333333333333 43.690666666666665 4.8545184 16.990814933333333 24.272593066666666 29.127111466666666 43.690666666666665 21.845333333333333 19.4180736-4.8545184 29.127111466666666-24.272593066666666 21.845333333333333-43.690666666666665-4.8545184-16.990814933333333-24.272593066666666-26.699851733333333-43.690666666666665-21.845333333333333z m84.95407359999999-53.399703466666665c-4.8545184-16.990814933333333-24.272593066666666-29.127111466666666-43.690666666666665-21.845333333333333-19.4180736 4.8545184-29.127111466666666 24.272593066666666-21.845333333333333 43.690666666666665 4.8545184 16.990814933333333 24.272593066666666 29.127111466666666 43.690666666666665 21.845333333333333 16.990814933333333-7.281778133333333 29.127111466666666-26.699851733333333 21.845333333333333-43.690666666666665z m4.8545184 82.52681493333333c-19.4180736 4.8545184-29.127111466666666 24.272593066666666-21.845333333333333 43.690666666666665 4.8545184 16.990814933333333 24.272593066666666 29.127111466666666 43.690666666666665 21.845333333333333 19.4180736-4.8545184 29.127111466666666-24.272593066666666 21.845333333333333-43.690666666666665-7.281778133333333-16.990814933333333-26.699851733333333-26.699851733333333-43.690666666666665-21.845333333333333z m87.38133333333333-58.254221866666654c-4.8545184-16.990814933333333-24.272593066666666-29.127111466666666-43.690666666666665-21.845333333333333-19.4180736 4.8545184-29.127111466666666 24.272593066666666-21.845333333333333 43.690666666666665 4.8545184 16.990814933333333 24.272593066666666 29.127111466666666 43.690666666666665 21.845333333333333 16.990814933333333-4.8545184 26.699851733333333-24.272593066666666 21.845333333333333-43.690666666666665z"  horiz-adv-x="1024" />

    
    <glyph glyph-name="wangluo" unicode="&#58897;" d="M917 48.6H107c-40.3 0-73 32.7-73 73v352c0 40.3 32.7 73 73 73h810c40.3 0 73-32.7 73-73v-352c0-40.3-32.7-73-73-73z m-810 442c-9.4 0-17-7.6-17-17v-352c0-9.4 7.6-17 17-17h810c9.4 0 17 7.6 17 17v352c0 9.4-7.6 17-17 17H107zM630.2 377.6h56v-160h-56zM786.2 377.6h56v-160h-56zM228 71.5h56v-100h-56zM740.1 71.5h56v-100h-56zM392.2 646.5h-56c0 8.9-7.2 16.1-16.1 16.1-8.9 0-16.1-7.2-16.1-16.1h-56c0 39.8 32.3 72.1 72.1 72.1 39.7 0 72.1-32.3 72.1-72.1zM498.1 646.5h-56c0 67.3-54.7 122-122 122s-122-54.7-122-122h-56c0 98.1 79.9 178 178 178s178-79.8 178-178zM292.1 618.7h56v-100h-56z"  horiz-adv-x="1024" />

    
    <glyph glyph-name="kaifa-" unicode="&#58889;" d="M798.4 134.4H224c-16.2 0-29.3 13.1-29.3 29.3V579.3c0 16.2 13.1 29.3 29.3 29.3h574.4c16.2 0 29.3-13.1 29.3-29.3v-415.6c0-16.2-13.1-29.3-29.3-29.3zM843.1 179.8H268.7c-16.2 0-29.3 13.1-29.3 29.3V624.7c0 16.2 13.1 29.3 29.3 29.3h574.4c16.2 0 29.3-13.1 29.3-29.3v-415.6c0-16.1-13.2-29.3-29.3-29.3zM843.1 165.8H268.7c-23.9 0-43.3 19.4-43.3 43.3V624.7c0 23.9 19.4 43.3 43.3 43.3h574.4c23.9 0 43.3-19.4 43.3-43.3v-415.6c0-23.8-19.5-43.3-43.3-43.3zM268.7 640c-8.4 0-15.3-6.9-15.3-15.3v-415.6c0-8.4 6.9-15.3 15.3-15.3h574.4c8.4 0 15.3 6.9 15.3 15.3V624.7c0 8.4-6.9 15.3-15.3 15.3H268.7zM602.3 485.8l-49.2-122.5c-2.9-7.2-11-10.7-18.2-7.8-7.2 2.9-10.7 11-7.8 18.2l49.2 122.5c2.9 7.2 11 10.7 18.2 7.8 7.2-2.9 10.7-11 7.8-18.2zM341.2 215.8c-1.1 0-2.2 0-3.3-0.1-8.6 35.8-40.8 62.4-79.2 62.4-41.5 0-75.8-31.1-80.8-71.3-35-1.2-63-29.9-63-65.2 0-36 29.2-65.3 65.3-65.3h156.5v0.1c1.5-0.1 2.9-0.1 4.4-0.1 38.5 0 69.7 31.2 69.7 69.7 0.1 38.6-31.1 69.8-69.6 69.8zM365.3 224.8c-1.1 0-2.2 0-3.3-0.1-8.6 35.8-40.8 62.4-79.2 62.4-41.5 0-75.8-31.1-80.8-71.3-35-1.2-63-29.9-63-65.2 0-36 29.2-65.3 65.3-65.3h156.5v0.1c1.5-0.1 2.9-0.1 4.4-0.1 38.5 0 69.7 31.2 69.7 69.7s-31.1 69.8-69.6 69.8zM365.3 71.4c-1 0-2.1 0-3.1 0.1-0.4 0-0.9-0.1-1.3-0.1H204.4c-43.7 0-79.3 35.6-79.3 79.3 0 20.7 7.9 40.3 22.3 55.1 11.7 12.1 26.6 20 42.8 22.9 10.4 42 48.4 72.5 92.6 72.5 21.6 0 42.7-7.4 59.5-20.8 13.7-10.9 24.1-25.5 30.1-41.8 42.8-3.6 76.5-39.7 76.5-83.4 0.1-46.2-37.4-83.8-83.6-83.8z m-4.4 28.2h0.9c1.3-0.1 2.4-0.1 3.6-0.1 30.7 0 55.7 25 55.7 55.7 0 30.7-25 55.7-55.7 55.7-0.8 0-1.7 0-2.6-0.1-6.7-0.3-12.7 4.2-14.3 10.7-7.3 30.4-34.2 51.7-65.6 51.7-33.9 0-62.7-25.4-66.9-59-0.8-6.8-6.5-12-13.4-12.3-27.7-1-49.5-23.5-49.5-51.2 0-28.3 23-51.3 51.3-51.3h154.5c0.6 0.1 1.3 0.2 2 0.2zM240.2 194m-9.7 0a9.7 9.7 0 1 1 19.4 0 9.7 9.7 0 1 1-19.4 0ZM325.5 194m-9.7 0a9.7 9.7 0 1 1 19.4 0 9.7 9.7 0 1 1-19.4 0ZM302.3 148.9c0-9.3-8.3-16.9-18.6-16.9s-18.6 7.6-18.6 16.9M302 588m-16 0a16 16 0 1 1 32 0 16 16 0 1 1-32 0ZM351.7 588m-16 0a16 16 0 1 1 32 0 16 16 0 1 1-32 0ZM401.3 588m-16 0a16 16 0 1 1 32 0 16 16 0 1 1-32 0ZM422.4 482.3L360.2 420c-5.5-5.5-14.3-5.5-19.8 0s-5.5 14.3 0 19.8l62.3 62.3c5.5 5.5 14.3 5.5 19.8 0 5.4-5.5 5.4-14.3-0.1-19.8zM402.6 357.8L340.4 420c-5.5 5.5-5.5 14.3 0 19.8s14.3 5.5 19.8 0l62.3-62.3c5.5-5.5 5.5-14.3 0-19.8-5.5-5.4-14.4-5.4-19.9 0.1zM429.7 482.1l-62.3-62.3c-5.5-5.5-14.3-5.5-19.8 0s-5.5 14.3 0 19.8l62.3 62.3c5.5 5.5 14.3 5.5 19.8 0 5.5-5.4 5.5-14.3 0-19.8zM409.9 357.6l-62.3 62.3c-5.5 5.5-5.5 14.3 0 19.8s14.3 5.5 19.8 0l62.3-62.3c5.5-5.5 5.5-14.3 0-19.8s-14.3-5.5-19.8 0zM693 377.4l62.3 62.3c5.5 5.5 14.3 5.5 19.8 0s5.5-14.3 0-19.8l-62.3-62.3c-5.5-5.5-14.3-5.5-19.8 0-5.4 5.5-5.4 14.3 0 19.8zM712.8 501.9l62.3-62.3c5.5-5.5 5.5-14.3 0-19.8s-14.3-5.5-19.8 0L693 482.1c-5.5 5.5-5.5 14.3 0 19.8s14.4 5.5 19.8 0zM699.7 377.4l62.3 62.3c5.5 5.5 14.3 5.5 19.8 0s5.5-14.3 0-19.8l-62.3-62.3c-5.5-5.5-14.3-5.5-19.8 0s-5.5 14.3 0 19.8zM719.5 501.9l62.3-62.3c5.5-5.5 5.5-14.3 0-19.8s-14.3-5.5-19.8 0l-62.3 62.3c-5.5 5.5-5.5 14.3 0 19.8 5.4 5.5 14.3 5.5 19.8 0z"  horiz-adv-x="1024" />

    
    <glyph glyph-name="wangluo1" unicode="&#59189;" d="M372.305 150.227C403.023 108.943 441.673 73.91 486 47.385v127.74c-39.818-2.647-78.01-11.24-113.695-24.898z m-51.609-24.217a392.912 392.912 0 0 1-60.194-41.64h-1.271c56.974-48.113 127.858-80.27 205.76-89.58-57.186 32.69-106.475 77.62-144.295 131.22zM295.985 356c4.004-56.745 20.087-110.155 45.691-157.675 44.903 18.522 93.476 29.956 144.324 32.91V356H295.985z m-56.124 0H120.985c6.296-89.215 42.447-170.188 98.523-232.989a449.204 449.204 0 0 0 71.8 50.725C262.051 228.677 243.903 290.43 239.86 356z m445.864-158.764c25.95 47.793 42.251 101.585 46.29 158.764H541v-124.899c51.032-3.215 99.745-14.975 144.725-33.865z m50.207-24.904a449.248 449.248 0 0 0 68.903-48.937c55.88 62.746 91.897 143.571 98.18 232.605H788.138c-4.08-66.13-22.507-128.377-52.206-183.668zM541 46.806c44.394 26.387 83.134 61.292 113.965 102.46-35.735 13.96-74.02 22.825-113.965 25.706v-128.166z m23.097-51.374c75.9 10.079 144.941 41.875 200.672 88.937h-0.484a392.964 392.964 0 0 1-57.91 40.348c-37.456-52.683-86.02-96.917-142.278-129.285z m-222.315 574.44c-25.666-47.57-41.787-101.05-45.797-157.872H486V537.116c-50.804 2.916-99.34 14.297-144.218 32.755z m-50.397 24.538a449.186 449.186 0 0 0-71.828 50.634C163.453 582.235 127.283 501.24 120.985 412H239.86c4.047 65.628 22.223 127.432 51.524 182.41zM486 720.615c-44.257-26.483-82.856-61.448-113.551-102.648 35.648-13.593 73.79-22.132 113.551-24.744V720.615z m-21.01 52.595c-77.702-9.286-148.422-41.303-205.321-89.21h0.518a392.903 392.903 0 0 1 60.606-41.872c37.808 53.54 87.06 98.42 144.198 131.082zM654.7 619.122c-30.788 41.016-69.433 75.796-113.7 102.108v-127.81c39.849 2.906 78.045 11.77 113.7 25.702z m51.415 24.562A392.966 392.966 0 0 1 763.97 684h0.361c-55.635 46.843-124.483 78.493-200.153 88.558 56.093-32.29 104.535-76.377 141.937-128.874zM732.017 412c-4.045 57.343-20.423 111.282-46.498 159.179C640.6 552.3 591.959 540.535 541 537.288V412h191.017z m56.123 0h114.875c-6.295 89.205-42.439 170.17-98.504 232.968a449.25 449.25 0 0 0-68.79-48.87c29.828-55.4 48.333-117.798 52.42-184.098zM512-64C264.576-64 64 136.576 64 384S264.576 832 512 832s448-200.576 448-448-200.576-448-448-448z"  horiz-adv-x="1024" />

    
    <glyph glyph-name="xitong2" unicode="&#58952;" d="M91.83 234.14c1.87-34.09 30.28-60.65 64.43-60.22h331.23v-91.74H360.74c-13.34 0-24.16-10.82-24.16-24.16s10.82-24.16 24.16-24.16h302.53c13.34 0 24.16 10.82 24.16 24.16s-10.82 24.16-24.16 24.16H536.51v91.74h331.24c34.14-0.43 62.55 26.13 64.43 60.22v55.32H91.83v-55.32zM867.74 734.14H156.26c-34.93 0.39-63.66-27.41-64.43-62.33v-328.43h840.34V671.81c-0.77 34.93-29.5 62.72-64.43 62.33z"  horiz-adv-x="1024" />

    
    <glyph glyph-name="xiazai2" unicode="&#59055;" d="M200 62h632v-88a8 8 0 0 0-8-8H192v88a8 8 0 0 0 8 8z m239 262.037V711c0 13.255 10.745 24 24 24h104v-401.473l141.997 137.148c9.534 9.209 24.728 8.945 33.936-0.59l0.004-0.003 72.205-74.799-304.959-294.546c-9.534-9.208-24.728-8.944-33.936 0.59l-0.003 0.004-71.859 74.44-0.063-0.062-205.587 212.927c-9.206 9.534-8.941 24.724 0.59 33.932l74.782 72.246L439 324.037z"  horiz-adv-x="1024" />

    
    <glyph glyph-name="kaifasheji" unicode="&#58899;" d="M896 89.92a32 32 0 0 0 64 0V16a48 48 0 0 0-48-48H112a48 48 0 0 0-48 48V752a48 48 0 0 0 48 48h800a48 48 0 0 0 48-48v-166.144H128V32h768v57.92z m0 559.936V736H128v-86.144h768zM641.92 490.944a32 32 0 0 0 60.16-21.888l-128-352a32 32 0 0 0-60.16 21.888l128 352z m134.272-64.352a32 32 0 0 0 47.616 42.816l126.432-140.64a32 32 0 0 0 0-42.784l-126.432-140.64a32 32 0 1 0-47.616 42.784L883.424 307.36l-107.2 119.232z m-337.952 0a32 32 0 1 1-47.584 42.816l-126.464-140.64a32 32 0 0 1 0-42.784l126.464-140.64a32 32 0 1 1 47.584 42.784L331.04 307.36l107.2 119.232z"  horiz-adv-x="1024" />

    
    <glyph glyph-name="qita1" unicode="&#58891;" d="M246.48853252 320.39029919999996c-26.87647162 0-48.75517774 21.8607295-48.75517773 48.73720111s21.87870612 48.74619024 48.75517773 48.74618859c26.86748246 0 48.74619024-21.86971697 48.74619026-48.74618859s-21.87870612-48.7372011-48.74619026-48.73720111z m0 66.69679597a17.97757317 17.97757317 0 0 1-17.95959487-17.95959486c0-9.89665372 8.05395201-17.95060741 17.95959487-17.9506074a17.97757317 17.97757317 0 0 1 17.95959486 17.9506074 17.97757317 17.97757317 0 0 1-17.95959486 17.95959486zM415.81030502 320.39029919999996c-26.87647162 0-48.74619024 21.8607295-48.74619024 48.73720111s21.86971697 48.74619024 48.74619024 48.74618859c26.88546076 0 48.74619024-21.86971697 48.7461886-48.74618859s-21.8607295-48.7372011-48.7461886-48.73720111z m0 66.69679597a17.97757317 17.97757317 0 0 1-17.95959652-17.95959486c0-9.89665372 8.05395201-17.95060741 17.95959652-17.9506074s17.95060741 8.05395201 17.9506074 17.9506074a17.96858401 17.96858401 0 0 1-17.9506074 17.95959486zM585.13207755 320.39029919999996c-26.87647162 0-48.74619024 21.8607295-48.74619027 48.73720111s21.86971697 48.74619024 48.74619027 48.74618859 48.74619024-21.86971697 48.74618857-48.74618859-21.86971697-48.7372011-48.74618857-48.73720111z m0 66.69679597a17.97757317 17.97757317 0 0 1-17.95959654-17.95959486 17.97757317 17.97757317 0 0 1 17.95959654-17.9506074 17.96858401 17.96858401 0 0 1 17.95060571 17.9506074 17.96858401 17.96858401 0 0 1-17.95060571 17.95959486zM754.45385004 320.39029919999996c-26.87647162 0-48.74619024 21.8607295-48.74619025 48.73720111s21.86971697 48.74619024 48.74619025 48.74618859c26.86748246 0 48.74619024-21.86971697 48.74618859-48.74618859s-21.87870612-48.7372011-48.74618859-48.73720111z m0 66.69679597a17.96858401 17.96858401 0 0 1-17.95060739-17.95959486c0-9.89665372 8.05395201-17.95060741 17.95060739-17.9506074a17.97757317 17.97757317 0 0 1 17.95959487 17.9506074 17.97757317 17.97757317 0 0 1-17.95959487 17.95959486zM923.77562256 320.39029919999996c-26.88546076 0-48.74619024 21.8607295-48.74619024 48.73720111s21.8607295 48.74619024 48.74619024 48.74618859c26.86748246 0 48.74619024-21.86971697 48.74618856-48.74618859s-21.87870612-48.7372011-48.74618856-48.73720111z m0 66.69679597a17.97757317 17.97757317 0 0 1-17.95959655-17.95959486c0-9.89665372 8.05395201-17.95060741 17.95959655-17.9506074a17.97757317 17.97757317 0 0 1 17.95959488 17.9506074 17.97757317 17.97757317 0 0 1-17.95959488 17.95959486zM693.8604396 171.80565788a28.22479028 28.22479028 0 0 1-27.69445229-33.57311916h-2.48090447c-59.86531791-54.15743814-139.16439405-87.23617424-226.05899238-87.23617259-145.14193652 0-269.15123612 92.17101739-316.65697247 221.02527197a28.22479028 28.22479028 0 1 1-38.24728706-14.93936329c53.47429133-144.12620299 192.37801017-247.12870865 354.89527039-247.12870863 101.84295246 0 194.38250985 40.46751623 262.46357772 106.13060369a28.20681199 28.20681199 0 0 1-6.22023944 55.72148801zM745.15045499 608.52585125c-68.72826144 95.74855439-180.95326153 158.24758725-307.53335367 158.24758722-186.33754532 0-341.61883254-135.38910249-372.72003472-312.96258154a28.17085707 28.17085707 0 0 1-11.15508424-22.44499901 28.22479028 28.22479028 0 1 1 51.68552284 15.69442158c27.86523772 158.13972249 166.19367447 278.67036068 332.19858526 278.6703607 107.69465187 0 203.73983645-50.74170079 265.53774253-129.55538135h0.78202407a28.22479028 28.22479028 0 1 1 54.0675517-11.29890392 28.22479028 28.22479028 0 0 1-12.86295377 23.64949632z"  horiz-adv-x="1024" />

    
    <glyph glyph-name="wangluo2" unicode="&#59147;" d="M1012.3915 598.779c-276.295 276.295-724.404 276.295-1000.699 0-15.59-15.59-15.59-40.798 0-56.277 15.59-15.589 40.797-15.589 56.276 0 245.227 245.228 642.92 245.228 888.147 0 15.59-15.589 40.797-15.589 56.276 0 15.479 15.48 15.479 40.687 0 56.277z m-850.666-171.15c-15.59-15.59-15.59-40.798 0-56.277 15.59-15.59 40.797-15.59 56.276 0 162.306 162.306 425.554 162.306 587.86 0 15.589-15.59 40.797-15.59 56.276 0 15.59 15.59 15.59 40.798 0 56.276-193.374 193.374-506.928 193.374-700.412 0z m551.042-181.544l0.221 0.221c-110.562 110.562-289.783 110.562-400.235 0-15.59-15.59-15.59-40.797 0-56.276 15.59-15.59 40.797-15.59 56.276 0 79.494 79.494 208.3 79.494 287.683 0l0.221 0.221a40.39 40.39 0 0 1 2.985-3.317c15.59-15.589 40.798-15.589 56.277 0 15.589 15.59 15.589 40.798 0 56.276-1.217 0.996-2.322 1.88-3.428 2.875zM453.3885 21.091c0-32.974 26.73-59.704 59.704-59.704 32.973 0 59.703 26.73 59.703 59.704 0 32.973-26.73 59.704-59.703 59.704-32.974 0-59.704-26.73-59.704-59.704z"  horiz-adv-x="1024" />

    
    <glyph glyph-name="developer" unicode="&#58961;" d="M900.096 132.26666666999995H122.88c-16.384 0-29.696 13.312-29.696 29.696V703.1466666700001c0 16.384 13.312 29.696 29.696 29.696h776.704c16.384 0 29.696-13.312 29.696-29.696v-540.672c0.512-16.384-12.8-30.208-29.184-30.208zM156.16 195.75466667h709.632V669.86666667H156.16v-474.112zM569.344-55.12533332999999c-16.384 0-29.696 13.312-29.696 29.696v172.032c0 16.384 13.312 29.696 29.696 29.696 16.384 0 29.696-13.312 29.696-29.696v-172.032c0-16.384-13.824-29.696-29.696-29.696z m-113.664 0c-16.384 0-29.696 13.312-29.696 29.696v172.032c0 16.384 13.312 29.696 29.696 29.696 16.384 0 29.696-13.312 29.696-29.696v-172.032c0-16.384-13.824-29.696-29.696-29.696zM740.352-55.12533332999999H284.16c-16.384 0-29.696 13.312-29.696 29.696s13.312 29.696 29.696 29.696h456.192c16.384 0 29.696-13.312 29.696-29.696s-13.312-29.696-29.696-29.696z m-408.576 352.768c-7.68 0-15.36 3.072-20.992 8.704L204.8 412.33066667c-11.776 11.776-11.776 30.208 0 41.984l106.496 106.496c11.776 11.776 30.208 11.776 41.984 0s11.776-30.208 0-41.984L267.776 433.32266667l84.992-84.992c11.776-11.776 11.776-30.208 0-41.984-5.632-6.144-13.312-8.704-20.992-8.704z m360.448 0c-7.68 0-15.36 3.072-20.992 8.704-11.776 11.776-11.776 30.208 0 41.984l84.992 84.992-84.992 84.992c-11.776 11.776-11.776 30.208 0 41.984 11.776 11.776 30.208 11.776 41.984 0l106.496-106.496c5.632-5.632 8.704-13.312 8.704-20.992 0-8.192-3.072-15.872-8.704-20.992l-105.984-105.984c-6.656-5.632-14.336-8.192-21.504-8.192z m-253.44-24.064c-5.12 0-9.728 1.024-14.336 4.096-13.824 8.192-19.456 26.112-11.264 40.96L562.688 580.26666667c8.192 13.824 26.112 19.456 40.96 11.264 13.824-8.192 19.456-26.112 11.264-40.96L464.896 288.42666667000003c-6.656-9.728-16.384-14.848-26.112-14.848z"  horiz-adv-x="1024" />

    
    <glyph glyph-name="kaifataojian" unicode="&#58938;" d="M869.12-128a151.04 151.04 0 0 0-106.88 44.16L486.4 192A360.32 360.32 0 0 0 26.24 663.04a56.96 56.96 0 0 0 42.24 35.84 57.6 57.6 0 0 0 53.76-16l140.8-140.8 90.24 90.24-140.8 140.8a59.52 59.52 0 0 0-16 53.76 59.52 59.52 0 0 0 36.48 42.24 360.32 360.32 0 0 0 484.48-275.2A355.84 355.84 0 0 0 704 408.96l275.2-275.84a151.04 151.04 0 0 0-106.88-256zM506.88 289.92l19.2-22.4 3.84-3.84 288-288.64a72.32 72.32 0 0 1 102.4 102.4L631.68 366.08h-3.84l-22.4 19.84 12.8 26.88a280.96 280.96 0 0 1-325.76 392.32l172.8-172.8-202.24-202.24-172.8 172.8a280.96 280.96 0 0 1 389.12-325.12z m0 0"  horiz-adv-x="1024" />

    
    <glyph glyph-name="wenjianjia" unicode="&#59330;" d="M854.5-24.5H169.3C111.2-24.5 64 22.7 64 80.9V687.2c0 58.2 47.2 105.4 105.4 105.4H354c9.9 0 18.3-5.5 22.8-13.4 2.7 0 5.3-0.5 7.2-2l107.5-91c2.3 0.7 4.8 1.1 7.2 1.1H854.6c58.2 0 105.4-47.2 105.4-105.4v-501.1c-0.1-58.1-47.3-105.3-105.5-105.3z m39.4 553.3v26.4H892c1.1 4.3 1.9 8.6 1.9 13.2 0 29.1-23.6 52.8-52.8 52.8H498.8c-5.1 0-9.9 1.5-13.9 4-7.6-5.2-15.7-6.7-20.3-2.7l-123.2 104h-159c-29.1 0-52.8-23.5-52.8-52.6 0-4.6 0.7-8.9 1.9-13.2h-1.9v-171.4h764.1v39.4h0.2z m0-421.5V423.4H129.8v-329.5c0-29.1 23.6-52.8 52.8-52.8h658.8c29.1 0 52.8 23.6 52.8 52.8 0 4.6-0.7 8.9-1.9 13.2h1.8v0.2z m-84.7-26.4c25 0 45.2 22 45.2 49.2V258.8c0 3.7-3 6.5-6.5 6.5h-13.2c-3.7 0-6.5-3-6.5-6.5V133.7c0-19.7-9.4-26.4-26.4-26.4h-26.4c-7.2 0-13.2-5.9-13.2-13.2s5.9-13.2 13.2-13.2h33.8z m-86.5 0c7.2 0 13.2 5.9 13.2 13.2s-5.9 13.2-13.2 13.2-13.2-5.9-13.2-13.2 5.9-13.2 13.2-13.2z"  horiz-adv-x="1024" />

    


  </font>
</defs>
</svg>
